Psx Track Files









us continues to gain popularity among online users throughout the world. You can then drag the file(s) onto a storage device. Now you can have access to 35 web sites with FREE SVG files for Cricut! I decided I wanted a list of all the web sites with Free SVG files in one place so I didn't. If you are using this plugin and you have a 64bits phone, you will have to use the epsxe beta release until the next. Welcome to our PSX ISO Section. #N#Flowers Are Dead. MAME has just been updated to its latest version: 0. When a change is detected the function will execute a predefined command and return execution to the main script. It's still a pretty. Some PlayStation 4 users have issues with the console having issues producing audio or video outputs. BIN" BINARY TRACK 01 MODE1/2352 INDEX 01 00:00:00 "image-name. A cue-sheet file is in fact a text file with a. This tutorial is to help you with Mednafen for Windows. In the S0-4 folders, there are numerous "NSD" and "NSF" files. MP3 Surround files can only be played when the system is set for audio output in Linear PCM format. com's PSX ROMs section. I was wondering if anything was lost in the conversion from multi > single and if it would affect the accuracy of the rip in any way. The Standard version is $20, which isn't bad, but only useful if you need to edit, create, convert, mount or burn ISO images. The cool thing is, you can easily convert the file you just opened to. On the desktop, there is "Crash Bash. Only users with topic management privileges can see it. Feel free to open such a file with your favorite text editor to see how the track layout and block size is saved. It was released in 1994 for the Panasonic 3DO, in 1995 for Microsoft DOS, and finally in 1996 for the Sony PlayStation and Sega Saturn. If PowerShell is available, the Send-MailMessage commandlet is a single one-line command that could easily be called from a batch file to handle email notifications. I have some old PS1 games, (Crash, Spyro, and Final Fantasy) that I want to extract their songs from the game so I can listen to them regularly. Each bin-file represents a track on the game CD-ROM. With our service users can upload, store and download music, videos, photographs, and many others types of files and documents. Most, if not all, PSX games discs only have a single data track, which makes. In Windows Powershell 2. cue files contain only the following, then you are free to delete them; if they contain more than a single track record, or the index is not 00:00:00, then you should keep them. 5/8/2020; 31 minutes to read +6; In this article. cue sheet probably won't have the needed length info because the data track is the last track and probably isn't in the rip (audio CD rippers generally don't rip data tracks at all). FILE "Castlevania - Symphony of the Night (USA). PSX ISOs (5134) NDS ROMs (6294) MAME ROMs (34305) GCN ISOs (1342) SNES ROMs (3484) GBA ROMs (2647) NES ROMs (2774) N64 ROMs (787) View All Sections; Consoles. This tutorial is to help you with Mednafen for Windows. BIN file is typically used to store information of following types: Binary disk or track data images. Here's my problem: I have iso files which come with multiple. Stay smooth and off the walls/grass to pass the. Convert Any CD / DVD Image File to ISO. CUE file contains tracks information, while the corresponding BIN file contains real track data. Has anyone gotten multi-track ps1 games to work properly on cfw with webman? what I mean is that if I put all the. Re: PSX ROM, no in-game music - help! It's a iso problem. For PC, download Foobar2000 (www. Sony PlayStation SCPH-1000 BIOS (1994)(Sony)(JP) 242 Ko Sony PlayStation SCPH-1001 - DTLH-3000 BIOS v2. bin04 IsoBuster can load these Multi-File images without a problem and you can still get. If you are using this plugin and you have a 64bits phone, you will have to use the epsxe beta release until the next. bin" BINARY TRACK 01 MODE2/2352 INDEX 01 00:00:00. BIN to ISO Converter: WinISO 6 can not only convert ISO to BIN, but also can convert BIN to ISO. Learn about CUE/BIN Disk Image File Format; Executable binary files for Unix based operating systems. I was adapting to PS4 one of my old projects. If you don't see a download file button, it means the user who uploaded it did not intend for it to be downloadable. CUE file looks like this: FILE "image-name. Actually, BIN image file is not a collection of files or folders but is an exact duplicate of the raw data of the original disc, sector by sector. This is the definitive guide to rebuild copies multitrack format redump. It's still a pretty. The corresponding bin file stores the actual data for all tracks in the disc. Buy BeamNG. With our service users can upload, store and download music, videos, photographs, and many others types of files and documents. Most PS1 games are single-track, so this will usually work. Has anyone gotten multi-track ps1 games to work properly on cfw with webman? what I mean is that if I put all the. Click on the "Source" disc box, then a Browse window will appear. God of War (PS4 - 2018) Call of Duty: WWII. Microsoft Windows. FILENAME) using the OPLM database - added ability to output a merged BIN/CUE file for use in emulators that do not support multi-track cue files. If you don't see a download file button, it means the user who uploaded it did not intend for it to be downloadable. PSX ISOs (5134) NDS ROMs (6294) MAME ROMs (34305) GCN ISOs (1342) SNES ROMs (3484) GBA ROMs (2647) NES ROMs (2774) N64 ROMs (787) View All Sections; Consoles. hash contains the SHA-1 hash identification of bin, iso and mdf files. PS2 plugin. The transcript includes all command that the user types and all output that appears on the console. PS1 - Windows PowerShell shell script. 'D:\' - but without the quotes) Pick a file name for the 'Destination' image file. An audio file format is a container format for storing audio data on a computer system. Showing letter: I. Saving content on mobile devices It is not possible to download a track from a mobile device. cue files contain only the following, then you are free to delete them; if they contain more than a single track record, or the index is not 00:00:00, then you should keep them. cue file with IsoBuster, IsoBuster will know the track layout of the image but will get the actual data from another file (*. Police used the IP addresses to track down where the game system was being used, one of them being Wingate's mother's. First, install IsoBuster and make sure to associate it with. iso)" and a window will pop up asking where to save it. Make sure the 'Input' mode is set to 'Standard' (menu at the top) Add the drive letter of your optical drive to the 'Source' box (i. The only time I seem to have problems is when I burn a game w/ multiple audio tracks and I get no sound. A lot of administrators often ask in the community, "How can I export Office 365 users' last-logon-time using PowerShell?". When you see a file with. It all started with a broken contract with Nintendo at the end of the decade of 1980. xa files, and can also view. i encountered the same problem on the PC and on my phone Sony Erricson xperia play. bin files (track 1, track 2 etc. iso data file and 'audio binaries' what software should I be using to burn a perfect 1:1 backup from these files?. BIN to ISO Converter: WinISO 6 can not only convert ISO to BIN, but also can convert BIN to ISO. Choose the source image file you want to convert. In fact, if you convert a a multi-track cue/bin file in a single cue/bin files, it works perfectly in the same way. Audio and sound file extension list File extensions used for audio and sound file types. How to play a game with multiple. I read here that as long as you have the. MagicISO can also burn BIN files. Track Your Stolen PS4. It's a PlayStation 1 emulator that works to its peak capacity right out of the box. If it's not an executable file; it starts the program associated with the file. Data track + separate file for each audio track (common with Redump). If you plan on selling your PlayStation 4, here's how to reset it by deactivating your PSN account and deleting all of the files on the console to put it back into factory condition. bin images and. In the S0-4 folders, there are numerous "NSD" and "NSF" files. CLIXML - Windows PowerShell serialized data. To track usage on a Mac, we're going to use the free app SurplusMeter. PSSC - Windows PowerShell Session Configuration file. This information is stored on the PlayStation™Network server, and includes your purchase history at PlayStation™Store, the trophies you've earned, your upload history for video clips and screenshots, and other details. 1) ROM for Nintendo 64(N64) and Play Mario Kart 64 (V1. Crash Bandicoot N. Additionally, you can add text, marker, lyrics, and cue points to the music sheet. cstr (compact. List of backmasked messages. pSX is an abandoned emulator that hasn't been updated since 2007. Welcome to our PSX ISO Section. This list is alphabetized (except when it makes sense to put Roman Numeral sequences in sequential order), with the number of discs following the name in parentheses. How to play a game with multiple. There are at least three known causes of the issue: The connection between the television and the console cannot. Am I misunderstanding this as not actually doable?. I have some old PS1 games, (Crash, Spyro, and Final Fantasy) that I want to extract their songs from the game so I can listen to them regularly. Choose the output bin file name. Use 7zip, WinZip or WinRAR to uncompress the archive. This may necessitate updating any custom per-game psx. Still, these files are not hard to find and, ideally, you want to find a complete set bundled together. Akuji the Heartless is an action-adventure video game developed by Crystal Dynamics and published by Eidos Interactive. For PSX games you may end up with a WHOLE LOT OF TRACK FILES like for Tomb Raider, or random japanese games. bin files) « Reply #2 on: August 26, 2010, 11:42:15 pm » The data is fine, Ive managed to get both the games working. Cue sheets can describe many types of audio and data CDs. CueMaster can retrieve CD track info from the free online album database FreeDB, or recover cuepoints from the MP3 file itself. cue file found! Will attempt to guess format assuming single track. Get help in the US and Canada for issues related to your Playstation® consoles, as well as questions and issues related to PlayStation™Vue, PlayStation™Now, and more. pSX is an abandoned emulator that hasn't been updated since 2007. The following list contains all PlayStation games that had 2 or more discs. You can also spawn a CMD process and run fc within it. xscalefs settings, and recalibrating the lightgun in-game, with PAL games. PS4 Pro is designed to take your favorite PS4 games and add to them with more power for graphics, performance, or features for your 4K, HDR TV, or 1080p HD TV. 7 Trophies • 285 Points. cue extension. CUE file is a plain text file which contains information about tracks in a compact disc. Works with Android, Windows, and Mac OS X devices. 1k files from emuparadise. We'll get to the latter in a moment, but let's first focus on USB. Some PlayStation 4 users have issues with the console having issues producing audio or video outputs. Edit "binname" to be the exact name of your. Most PS1 games are single-track, so this will usually work. PlayStation Classic is a new mini-console, built to celebrate the rich heritage of the original PlayStation. It is then when I load it from the original cue file will all the its bin files. bin" BINARY TRACK 01 MODE1/2352 INDEX 01 00:00:00. cue files contain only the following, then you are free to delete them; if they contain more than a single track record, or the index is not 00:00:00, then you should keep them. People have the OST's on YouTube and I want to listen to them without going online. Cue files for ePSXe So all of my PS1 games have. As the app only monitors data on that particular Mac, you'll have to install it on all of the Macs in your house that you. This is especially useful when your enterprise's logging is centralized. Next to the "Destination" disc box, ensure your CD. Create a new. Menu System: Smooth, easy to use Menu System with many useful shortcuts and options. - added ability to choose what files the program generates (VCD, ART or BIN) - added ability to automatically rename files to the latest format required by OPL (GAMEID. (Double speed) Control Pad Two control pad connectors Expandable with multitap connector. Description: Tekken 3 is a Fighting video game published by Namco released on April 24, 1998 for the Sony PlayStation. This method won’t necessarily tell you all your time played across various saves, though, so you will have to do a little bit of math to find out your overall hours. I would check if the images are correct before burning it to a disk. First, install IsoBuster and make sure to associate it with. img images are exactly the same data wise, byte for byte crc and all, just a different extension name and the img format also includes extra sub-channel sub files. Destroy All Humans! Ace Combat 7: Skies Unknown. Do you want FREE SVG files for Cricut! Of course you do! If you are a Cricut beginner like me, you know that it can take hours of searching online to find the perfect SVG file only to realize that is a Paid SVG File and not free. This is a fairly common issue that many players may encounter. wav, and so forth. The game I've been trying do do it with is Street Fighter Alpha. List of backmasked messages. cue files totally pointless for PSX game images. CONTENTS Key Figures 3 Vision 4 Mission 4 Company Information 6 Notice of 22nd Annual General Meeting 9. Change filename. bin 669MB RE2(Disc1)(Track2). Start the program, click the 'Create image file from files/folders' button. Single-track game. Creating a cue sheet for a CD has never been so easy. I spent a lot of time trying to find the texture index for each track face in any of these files. 4) How do I make. roms with multiple. So all of my PS1 games have. A lot of administrators often ask in the community, "How can I export Office 365 users' last-logon-time using PowerShell?". Step 1: Right click on the ISO file and select Open with/Disk Utility. 09 ISO (PSX) International Cricket Captain 2001 Ashes Edition ISO (PSX) International Moto X ISO (PSX) International Superstar Soccer Pro ISO (PSX) International Track & Field ISO (PSX) International Track & Field 2000 ISO (PSX). To run a disk image in an unsupported format, you will need to mount it with a separate program and configure ePSXe to use the virtual drive which the image is mounted to. With our service users can upload, store and download music, videos, photographs, and many others types of files and documents. The cool thing is, you can easily convert the file you just opened to. And not all games support time tracking, so your mileage may vary. I 22:08:20 Source File Sectors: 199,325 (MODE2/FORM1/2352) I 22:08:20 Source File Size: 468,812,400 bytes. By default, you can find this file located in the following directory:. Kenapa admin lebih memilih 7zip daripada winrar ? karena compress dari software 7zip lebih baik daripada winrar dan bisa untuk mengekstrak file dengan ekstensi winrar juga. Call of Duty: Black Ops III. PSSC - Windows PowerShell Session Configuration file. The bin file is a binary file, which stores the raw sector-by-sector copies of the tracks in the disc. Many of the albums feature more than one track (for example, one track on one album, combined with all the hidden tracks, has a length of 56 minutes 40 seconds). Then, select all the tracks in the album and right click and use the 'Convert' menu to convert the files to separate WAV tracks. You first need to deactivate your PSN account from the console. This seq file type entry was marked as obsolete and no longer supported file format. There are 833 midi files in the Sony PlayStation 2 directory. With our service users can upload, store and download music, videos, photographs, and many others types of files and documents. If you declare *. FILENAME) using the OPLM database - added ability to output a merged BIN/CUE file for use in emulators that do not support multi-track cue files. Launcher Logs To start with, we will need the launcher logs for the Uplay PC client. Save the file to the same folder as the BIN file. 0 or later. Win the 4WD Challenge at Laguna Seca to receive a 618 hp custom car. wav (windows sound format), which makes it even easier to watch/listen to your favorite PSX game's movies/music. The contents are 4 folders: S0,S1,S2,S3; and a "44" file, a "CNF" file and a "WAD" file. Data Transfer Rate (DMA TO RAM) 150 KB/sec. This list is alphabetized (except when it makes sense to put Roman Numeral sequences in sequential order), with the number of discs following the name in parentheses. SITUATION: If you ever find yourself with an issue that after you ripped your CD Game (either a PS1 or PS2 CD game), you got a bunch of multiple BIN files instead of one. Most PS1 games are single-track, so this will usually work. Powershell script to collect sccm log files from clients using Run Script By Jörgen Nilsson Configuration Manager 3 Comments During my session at Techdays Sweden I demoed the new Run Script feature both in Configuration Manager 1706 and the enhancements made in the Technical preview after and showed how a variable can be used. CLIXML - Windows PowerShell serialized data. Akuji the Heartless is an action-adventure video game developed by Crystal Dynamics and published by Eidos Interactive. (Normal) 300 KB/sec. cuebin: Seems to be MODE1/2048 play_xa: unhandled xa mode 000000ff. In order to install it run the executable that will deploy a gauge in the proper folder and automatically activate it. Here's my problem: I have iso files which come with multiple. The soundtrack was nice, though. Rip / Copy Multi-track Cd's (cue/bin, Playstation); Smoother CD burning using. With the same name, but with the. Cara Install International Track And Field 2000 PS1. Many apps, including Windows, won't recognize a CUE / BIN image to mount it. Cue sheets also specify track lengths, and CD-Text including track and disc titles and performers. ps1 as files as UTF-16 and you add foo. Then copy-paste the cue file text into a Notepad file, save it using the exact same file name as the game's main image file, and save it in the same folder. com's PSX ROMs section. " in the game's title) and I don't know how to get them to show up as one game when I scan them with Ice. The only time I seem to have problems is when I burn a game w/ multiple audio tracks and I get no sound. This file's name is also contained in the *. All the entertainment. Cue sheets are hard to find these days. Here is the PKG for all of you interested on testing. Order or pre-order your next favorite game from PlayStation™Store. Additionally, only individual tracks can be downloaded and playlists as a whole are not available. 85 MB 07-05-2020 Multilanguage GNU GPL 2,992 Download: PCSX2 1. WinISO is another free program, but you have to download the older 5. exe, wait for it to decode 100%. The PowerShell Start-Process cmdlet opens an executable file — such as a script file. Over the years, development changed hands several times with PCSX-Reloaded (PCSXR) now being the main version. This is the definitive guide to rebuild copies multitrack format redump. CUE looks like this: FILE "image-name. A GREAT Playstation utility that plays. Click the big 'Build' button. It also contains a lot of additional information for those that seek a less. This is the PCSX2 1. FF8 Show PSX Buttons [forums. Call of Duty: Black Ops III. bin" BINARY TRACK 01 MODE1/2352 INDEX 01 00:00:00. and September 29, 1995 in Europe. Click on: File —-> Open Image File; and select the file. We updated the NDS section today. img images are exactly the same data wise, byte for byte crc and all, just a different extension name and the img format also includes extra sub-channel sub files. Sane Trilogy. Took Tekken 3 with it's multiple tracks and created a single BIN/CUE this way. The same PlayStation was used again later with a different account name. Minecraft: PlayStation 4 Edition. i want to have it on my ds xl tat i mod but its not. Here is the PKG for all of you interested on testing. Click on: File —-> Open Image File; and select the file. It's a Windows cd/dvd PS2 emulation plugin, compatible with P©SX2 ( www. This is an update of the plug-in for the AirTrack iPhone, iPad and iPod Touch app. This type of file is no longer actively used and is most likely. 17 Trophies • 1,230 Points. Next to the "Destination" disc box, ensure your CD. iso" BINARY TRACK 01 MODE2/2352 INDEX 01 00:00:00 FILE "Castlevania - Symphony of the Night (USA) (Track 2). Sony has finally released a media player for the PlayStation 4, only a year and a half after the console launched. MAME has just been updated to its latest version: 0. The required format for the CD images is BIN+CUE. bin files? So one of my favourite games growing up was The Die Hard Trilogy. This tutorial is to help you with pSX for Windows. Start the program, click the 'Create image file from files/folders' button. • Apple Macintosh • Bandai Playdia Quick Interactive System • Bandai / Apple Pippin • Commodore Amiga CD • Commodore Amiga CD32 • Commodore Amiga CDTV • Fujitsu FM Towns series • IBM PC compatible • Mattel HyperScan • Microsoft Xbox • NEC PC-88 series • NEC PC-98 series • NEC PC-FX & PC-FXGA • NEC PC Engine CD. Mednafen is a multi-system emulator that supports Atari Lynx, Neo Geo Pocket Color, WonderSwan, Game Boy Color, Game Boy Advance, NES, SNES, Virtual Boy, PC Engine/TurboGrafx-16 CD, PC-FX, Game Gear, Genesis/Mega Drive, Sega CD/Mega CD, Sega Master System, PlayStation 1, and Saturn. With our service users can upload, store and download music, videos, photographs, and many others types of files and documents. bin" BINARY TRACK 01 MODE1/2352 INDEX 01 00:00:00 Replace GAME NAME [1] US. Data track + separate file for each audio track (common with Redump). Step 1: Right click on the ISO file and select Open with/Disk Utility. BIN COMPLETO - Duration: 5:48. This utility can also convert the movies to either AVI's, or the sound output to. CUE file looks like this: FILE "image-name. Menu System: Smooth, easy to use Menu System with many useful shortcuts and options. me; Database. Cue sheets can describe many types of audio and data CDs. Crash Bandicoot N. As the app only monitors data on that particular Mac, you'll have to install it on all of the Macs in your house that you. cue of your copy. Reza Kuntokz 11,131 views. 0 (Windows 7, Windows Server 2008 R2), to create a scheduled job, you must use the TaskScheduler module. PSD1 - Windows PowerShell data file (for Version 2). Actually, BIN image file is not a collection of files or folders but is an exact duplicate of the raw data of the original disc, sector by sector. For PC, download Foobar2000 (www. Need for Speed (2015) Journey to the Savage Planet. Use batch migration to migrate Exchange Server public folders to Exchange Online. It allows you to set a custom rendering resolution of up to 3x horizontal internal resolution and up to 4x vertical internal resolution for within the fullscreen box, aka window resolution and has support for shaders and Bilinear texture filtering. 09 ISO (PSX) International Cricket Captain 2001 Ashes Edition ISO (PSX) International Moto X ISO (PSX) International Superstar Soccer Pro ISO (PSX) International Track & Field ISO (PSX) International Track & Field 2000 ISO (PSX). So all of my PS1 games have. Sony has given users the opportunity this time round to play a lot of file formats, including the increasingly popular MKV container. Raid your enemies. Once it's 100% completed, the cmd windows will close, now check the folder where tje ECM file was, a BIN file will be created. PCSX has a high compatibility rate and is currently available for a number of different operating systems including Microsoft. Find troubleshooting for common questions and issues on the PlayStation® support site. However when I load it up in an emulator the music doesn't play. PlayStation Classic is a new mini-console, built to celebrate the rich heritage of the original PlayStation. Reza Kuntokz 11,131 views. cue file with the. It's still a pretty. I 22:08:20 Source File File System(s): ISO9660. Save the file to the same folder as the BIN file. Click "File" and "Save as," and save the file as binname. Purchase the game from Humble Bundle. I have some old PS1 games, (Crash, Spyro, and Final Fantasy) that I want to extract their songs from the game so I can listen to them regularly. The most advanced PlayStation® system ever. Compressed PlayStation 1 games have the "ECM" extension. Updated 5/16/2011. 5/8/2020; 31 minutes to read +6; In this article. So all of my PS1 games have. Most PS1 games are single track, but there are a few that aren't. Reza Kuntokz 11,131 views. It can convert BIN to ISO in order to burn BIN files with CD/DVD/Blu-ray Disc recording software. • Apple Macintosh • Bandai Playdia Quick Interactive System • Bandai / Apple Pippin • Commodore Amiga CD • Commodore Amiga CD32 • Commodore Amiga CDTV • Fujitsu FM Towns series • IBM PC compatible • Mattel HyperScan • Microsoft Xbox • NEC PC-88 series • NEC PC-98 series • NEC PC-FX & PC-FXGA • NEC PC Engine CD. 0 or later. Supports BIN, ISO and IMG files. wav, Track 03. (see first image above) And if you required to have a single BIN file in order to either convert it to a VCD for POPStarter (PSX) or an ISO for OPL (PS2). Re: PSX iso issues with epsxe (multiple. The section now contains all roms from release 0001 to 6300. cue sheet or. (Normal) 300 KB/sec. Make sure the 'Input' mode is set to 'Standard' (menu at the top) Add the drive letter of your optical drive to the 'Source' box (i. Clean simple layout combined with both 2D and 3D graphics. BIN" BINARY TRACK 1 MODE2/2352 INDEX 1 00:00:00 A typical PC CD-ROM. Sorry for the delay on this update. PSC1 - Windows PowerShell console file. I read here that as long as you have the. It works for almost every PS1 game I burn. Become a legendary Viking warrior raised on tales of battle and glory. cue file itself in ePSXe, but if I try to do so I only get a black screen. I am currently using a swap trick to play burnt PS1 games on my PS2. Horizon Zero Dawn. 40MB RE2(Disc2)(Track1). This will typically cause trouble for the users of this file. Only users with topic management privileges can see it. 09 ISO (PSX) International Cricket Captain 2001 Ashes Edition ISO (PSX) International Moto X ISO (PSX) International Superstar Soccer Pro ISO (PSX) International Track & Field ISO (PSX) International Track & Field 2000 ISO (PSX). xa files (PSX music/sound),. cue file with the. The Sony Playstation There are so many things we can say about it but most of you know about it so let's just go to the specs & emulators. With PowerISO, you can open BIN / CUE files, burn them to disc, or mount as virtual drive. Some PlayStation 4 users have issues with the console having issues producing audio or video outputs. com's game information and ROM (ISO) download page for International Track & Field (Sony Playstation). PS2 has set a new standard for players and developers by introducing some newest features. In order to install it run the executable that will deploy a gauge in the proper folder and automatically activate it. Tim Fisher. PlayStation™Store gets you closer to the games you love. BIN" BINARY TRACK 1 MODE2/2352 INDEX 1 00:00:00 A typical PC CD-ROM. This is the PCSX2 1. Below you'll find helpful tips and how-to's on common issues you may encounter. I used to own a PS2 and a very large number of PS1 and PS2 games, but CD ripping and burning from the command prompt Howto (Linux How to rip and burn data, audio and special (like Playstation PSX) CDs using the standard command line tools. WMA format files that are copyright protected cannot be played. Get help in the US and Canada for issues related to your Playstation® consoles, as well as questions and issues related to PlayStation™Vue, PlayStation™Now, and more. bin04 IsoBuster can load these Multi-File images without a problem and you can still get. Choose the source image file you want to convert. Learn about CUE/BIN Disk Image File Format; Executable binary files for Unix based operating systems. Has anyone gotten multi-track ps1 games to work properly on cfw with webman? what I mean is that if I put all the. 85 MB 07-05-2020 Multilanguage GNU GPL 2,992 Download: PCSX2 1. cue file, open it up with Notepad, and paste the following in it: FILE "JET MOTO 2[1] US. I read here that as long as you have the. Use batch migration to migrate Exchange Server public folders to Exchange Online. You identify the location of a track break, write it into a text file and save the file for use in burning CD or splitting the track with an application like CUE Splitter. 9 [1] - More accurate and compatible than OpenGL 1. Many download sites and P2P programs offer full CD's in one. bin with whatever your game's file name is, but keep the quotation marks. BIN In Un Unico File. With PowerISO, you can open BIN / CUE files, burn them to disc, or mount as virtual drive. PS1: Added setting "psx. BIN" BINARY TRACK 1 MODE2/2352 INDEX 1 00:00:00 A typical PC CD-ROM. [ Reply ] [ Quote ] Re: [PSX] Single bin and audio tracks [message #3752 is a reply to message #3749 ]. From AAA titles to Indies, PlayStation™Store has an ever-expanding library of games, movies, and TV Shows. Reza Kuntokz 11,131 views. Grand Theft Auto 5. 0, Start-Transcript includes the hostname in the generated file name of all transcripts. iso on the first line in the cue-file. Description: Tekken 3 is a Fighting video game published by Namco released on April 24, 1998 for the Sony PlayStation. Do you want FREE SVG files for Cricut! Of course you do! If you are a Cricut beginner like me, you know that it can take hours of searching online to find the perfect SVG file only to realize that is a Paid SVG File and not free. I can only get in in a format that is multiple. This means you will have at least two. Here you'll find some of the most common questions editors may encounter when using SHAREfactory, as well as guides for working with the publishing tools on PlayStation®4. com's PSX ROMs section. BIN" BINARY would be changed to FILE "D:\MOVIES\CD2. A GREAT Playstation utility that plays. Grand Theft Auto Advance GBA; Grand Theft Auto 2 [SLUS-00789] PSX Grand Theft Auto 2 GBC; Grand Theft Auto - Vice City Stories PSP; Grand Theft Auto NTSC-U SLUS-00106 PSX; F-1 World Grand Prix N64; Grand Theft Auto GBC; Grand Theft Auto - Mission Pack 1 - London 1969 [SLUS-00846] PSX From TV Animation One Piece - Grand Battle! 2 PSX; Grand Theft Auto 2 DC. A client without working-tree-encoding support will checkout foo. PS1 - Windows PowerShell shell script. The soundtrack was nice, though. Here you'll find some of the most common questions editors may encounter when using SHAREfactory, as well as guides for working with the publishing tools on PlayStation®4. I tried VLC media player but the files were unreadable. Programs that open PS1 files. Stay smooth and off the walls/grass to pass the. PowerISO shows Image File to BIN Converter dialog. cue files are files stored on plain text that tell the program running it how the tracks on a cd/dvd are organized. Below you'll find helpful tips and how-to's on common issues you may encounter. Single-track game. Original soundtrack of the first version of the game. Reverse Engineering WipEout (PSX) In 1995 one of my all time favorite video games was released: the original WipEout for PlayStation. Data track + separate file for each audio track (common with Redump). This means you will have at least two. With that selected, go to File > CD > Extract CD (image) and select "RAW (*. First, install IsoBuster and make sure to associate it with. next mount the. CueMaster can retrieve CD track info from the free online album database FreeDB, or recover cuepoints from the MP3 file itself. File extension seq is associated with the Sony PlayStation, a 32-bit video gaming console released in 1994. Various compilation releases, released in the UK newspaper The Independent, feature hidden tracks after the final track. Figure 7: Event Properties - Permission changes in Active Directory ; You can also execute the below command in "Active Directory Module for Windows PowerShell". Single binary track — pregap start time with INDEX 00. FF8 Show PSX Buttons [forums. bin files (track 1, track 2 etc. Playstation cue and sbi files collection. Saving content on mobile devices It is not possible to download a track from a mobile device. You identify the location of a track break, write it into a text file and save the file for use in burning CD or splitting the track with an application like CUE Splitter. Download Mario Kart 64 (V1. Find troubleshooting for common questions and issues on the PlayStation® support site. How To Transfer Via Disk. Additional packs consist of songs that have not been featured in Guitar Hero before, and are masters, even though. When you have the If you need more instruction Go HERE. If you plan on selling your PlayStation 4, here's how to reset it by deactivating your PSN account and deleting all of the files on the console to put it back into factory condition. Here's where the BIN to ISO conversion comes in handy. 21 Trophies • 315 Points. BleemSync, presumably named after an early commercial PS1 emulator for the PC called "Bleem!", is a piece of software created to make it much easier to add custom games to your PlayStation Classic. Compressed PlayStation 1 games have the "ECM" extension. Below you'll find helpful tips and how-to's on common issues you may encounter. Make sure the zipped file is above 150 MB,everything. The game I've been trying do do it with is Street Fighter Alpha. Become a legendary Viking warrior raised on tales of battle and glory. BIN" add the full path before it, for example, if your bin and cue files were in the folder located at D:\MOVIES then FILE "CD2. This list is alphabetized (except when it makes sense to put Roman Numeral sequences in sequential order), with the number of discs following the name in parentheses. Has anyone gotten multi-track ps1 games to work properly on cfw with webman? what I mean is that if I put all the. bin" BINARY TRACK 01 MODE1/2352 INDEX 01 00:00:00. BIN In Un Unico File. Hi guys, following my guide on Unity for all of you interested in a File Manager for PS4 HEN 4. avi (windows movie format) or. Powershell script to collect sccm log files from clients using Run Script By Jörgen Nilsson Configuration Manager 3 Comments During my session at Techdays Sweden I demoed the new Run Script feature both in Configuration Manager 1706 and the enhancements made in the Technical preview after and showed how a variable can be used. But if you don't have cue files forget about it, I'm not sure how you'll be running multiple audio track games without cue files though. Download Mario Kart 64 (V1. 0 or later. Most, if not all, PSX games discs only have a single data track, which makes. roms with multiple. BIN files in this case are used in combination with CUE metadata files which store meta information about what is stored in BIN files. " in the game's title) and I don't know how to get them to show up as one game when I scan them with Ice. Launcher Logs To start with, we will need the launcher logs for the Uplay PC client. An audio file format is a container format for storing audio data on a computer system. With the same name, but with the. Menemukan file ganda atau berkelipatan setelah di ekstrak pada file/rom game PS1 , ini hal yang perlu dilakukan agar menjadi satu file bin dan dapat memudah kan untuk disimpan atau di mainkan di PS3, Android, PSP ataupun PC. I 22:08:20 Source File Sectors: 199,325 (MODE2/FORM1/2352) I 22:08:20 Source File Size: 468,812,400 bytes. 'D:\' - but without the quotes) Pick a file name for the 'Destination' image file. Here's where the BIN to ISO conversion comes in handy. We'll get to the latter in a moment, but let's first focus on USB. With our service users can upload, store and download music, videos, photographs, and many others types of files and documents. Mobile optimized. bin files they should run. However when I load it up in an emulator the music doesn't play. iso on the first line in the cue-file. PSX ISOs (5134) NDS ROMs (6294) MAME ROMs (34305) GCN ISOs (1342) SNES ROMs (3484) GBA ROMs (2647) NES ROMs (2774) N64 ROMs (787) View All Sections; Consoles. BIN" being the name of the image file (IWDII. cue files totally pointless for PSX game images. It works with joystick and track. org is a dumping group btw). img images are exactly the same data wise, byte for byte crc and all, just a different extension name and the img format also includes extra sub-channel sub files. Win the 4WD Challenge at Laguna Seca to receive a 618 hp custom car. cue file in Daemon Tools or equivalent and then run the. Description: Tekken 3 is a Fighting video game published by Namco released on April 24, 1998 for the Sony PlayStation. To run a game from a disk image in a supported format (. We're sure that you know not many sites offer PSX ISO's for download. CMP did not contain the track textures. Data Transfer Rate (DMA TO RAM) 150 KB/sec. Cue sheets can describe many types of audio and data CDs. CUE looks like this: FILE "image-name. It was the first official game in the long-running Need for Speed series. Get-content Get-SecTLS. People have the OST's on YouTube and I want to listen to them without going online. You can play games via the CD-ROM or via ISO. bin02, Image. Become a legendary Viking warrior raised on tales of battle and glory. There are 833 midi files in the Sony PlayStation 2 directory. PS1: Made minor adjustments to the PS1 pixel aspect ratio and lightgun crosshairs Y position with PAL PS1 emulation. Install the module by running the " Import-Module TaskScheduler " command and use the following script to create a task that will execute the PowerShell script named GroupMembershipChanges. A similar window may pop-up when you drag and drop the ECM file into the unecm. Click "File" and "Save as," and save the file as binname. pSX is an abandoned emulator that hasn't been updated since 2007. Most commonly, you'll find PlayStation games distributed as a zip-file and inside you'll find one or more bin files. CUE / BIN was widespread around 2000, but now we will hardly find it, anymore. In Windows Powershell 2. This tutorial is to help you with pSX for Windows. bin" BINARY TRACK 01 MODE1/2352 INDEX 01 00:00:00. wav, Track 03. If it's not an executable file; it starts the program associated with the file. FILE "filename. If you don't see a download file button, it means the user who uploaded it did not intend for it to be downloadable. Nov 2nd 2013, 10:02. Most PS1 games are single track, but there are a few that aren't. CUETools can learn of a data track's existence on the original CD by info in the. BIN In Un Unico File. (I think). The contents are 4 folders: S0,S1,S2,S3; and a "44" file, a "CNF" file and a "WAD" file. BIN to ISO Converter: WinISO 6 can not only convert ISO to BIN, but also can convert BIN to ISO. There is already an answer using file hashes. " in the game's title) and I don't know how to get them to show up as one game when I scan them with Ice. 6 Trophies • 285 Points. Sponsored links. If you have one of the portable MP3 players, it is also easy to carry MP3s with you and listen to them through headphones. Most commonly, you'll find PlayStation games distributed as a zip-file and inside you'll find one or more bin files. Before we open our emulator, it is recommended that you track down the Playstation 1 bios files. Luckily, you can do most of this with the free version too, it's just got an older looking interface, which isn't a big deal to me. It was the first official game in the long-running Need for Speed series. For PSX games you may end up with a WHOLE LOT OF TRACK FILES like for Tomb Raider, or random japanese games. wav" WAVE TRACK 02 AUDIO INDEX 00 00:00:00 INDEX 01 00:02:00. In Windows Powershell 2. About Mednafen. hello to you here you use a pc to download you should click on the more option button and select download browser. I read here that as long as you have the. Click the big 'Build' button. 21 Trophies • 315 Points. I am currently using a swap trick to play burnt PS1 games on my PS2. When you have the If you need more instruction Go HERE. This means you will have at least two. bin 671MB RE2(Disc2)(Track2). next mount the. PS1 - Windows PowerShell shell script. This is the PCSX2 1. When you see a file with. MP3 music files are great when you are sitting at your computer. HD support is limited, some games could be slow or glitched when using this plugin. mov (normal movie format), and. It all started with a broken contract with Nintendo at the end of the decade of 1980. Data track and audio track binaries, properly dumped using the guide; Cuesheets and. cue file with the. In fact, the unhelpfully named TRACK. The same happens if I try to run "Run CD ROM". ps1 with a working-tree-encoding enabled Git client, then foo. PS4 Pro is designed to take your favorite PS4 games and add to them with more power for graphics, performance, or features for your 4K, HDR TV, or 1080p HD TV. In fact, if you convert a a multi-track cue/bin file in a single cue/bin files, it works perfectly in the same way. When using a USB adaptor to play music files, you may need to use a USB adaptor (not included) that supports copyright-protection features (to play copyright-protected files). Image File & Clone Creation Settings IsoBuster can create image files using these settings: Split Image files in multiple files during creation : For several reasons it can be interesting at times to create image files split up in several files. BIN file is typically used to store information of following types: Binary disk or track data images. These packs include songs from the first Guitar Hero for the PlayStation 2. Grand Theft Auto ROMs. A GREAT Playstation utility that plays. The transcript includes all command that the user types and all output that appears on the console. 0 (Windows 7, Windows Server 2008 R2), to create a scheduled job, you must use the TaskScheduler module. FILE "binname. If PowerShell is available, the Send-MailMessage commandlet is a single one-line command that could easily be called from a batch file to handle email notifications. Once found, Open the file. "Mode 1" : Burn ISO image in Mode 1 format. Change filename. Compressed PlayStation 1 games have the "ECM" extension. And not all games support time tracking, so your mileage may vary. cue files contain only the following, then you are free to delete them; if they contain more than a single track record, or the index is not 00:00:00, then you should keep them. Unfortunately this plugin. Download Tekken 3 ISO ROM for PSX to play on your pc, mac, android or iOS mobile device. Creating a cue sheet for a CD has never been so easy. Download Mario Kart 64 (V1. Egor Hans • 2 years ago. As an alternative download PSX torrents eboot files that are already converted by other users. The best place to get cheats, codes, cheat codes, hints, tips, tricks, and secrets for the PlayStation (PSX). Convert Any CD / DVD Image File to ISO. In the S0-4 folders, there are numerous "NSD" and "NSF" files. Here's my problem: I have iso files which come with multiple. Please do not ask us for the files directly as they are not publicly available anymore and are intended to be used solely by owners of genuine PSIO Cartridges. PSX ISOs (5134) NDS ROMs (6294) MAME ROMs (34305) GCN ISOs (1342) SNES ROMs (3484) GBA ROMs (2647) NES ROMs (2774) N64 ROMs (787) View All Sections; Consoles. 3 version instead of the newer version. cue files/extensions, it usually means that these files are an image copy of a cd/dvd. Choose "Tools > Convert" Menu. The Sony Playstation There are so many things we can say about it but most of you know about it so let's just go to the specs & emulators. Additionally, only individual tracks can be downloaded and playlists as a whole are not available. You can get the Windows binaries here, for the full sources check out the sourceforge page. Clean simple layout combined with both 2D and 3D graphics. hello to you here you use a pc to download you should click on the more option button and select download browser. Playstation. Only users with topic management privileges can see it. Interactive CD Sampler Demo Pack Vol. Once it's 100% completed, the cmd windows will close, now check the folder where tje ECM file was, a BIN file will be created. With PlayStation App, you can: • See which of your friends are online and what they're playing. The secret to winning on the Test-Track is in the corners. Data Transfer Rate (DMA TO RAM) 150 KB/sec. Additionally, only individual tracks can be downloaded and playlists as a whole are not available. This information is stored on the PlayStation™Network server, and includes your purchase history at PlayStation™Store, the trophies you've earned, your upload history for video clips and screenshots, and other details. How It Works. For example : Jersey Devil (track 1. Get help in the US and Canada for issues related to your PlayStation® PS4™, PS4™Pro, PS VR, DUALSHOCK®4 wireless controller, PS3™, and PS Vita. In order to install it run the executable that will deploy a gauge in the proper folder and automatically activate it. Error: Something went wrong! Last Updated: 16/FEBRUARY/2020. There are at least three known causes of the issue: The connection between the television and the console cannot. bin to the name of the BIN file you are trying to burn. This file's name is also contained in the *. cstr (compact. To run a game from a disk image in a supported format (. Sony PlayStation SCPH-1000 BIOS (1994)(Sony)(JP) 242 Ko Sony PlayStation SCPH-1001 - DTLH-3000 BIOS v2. AirTrack is an app that allows tracking of flights on your iPhone or iPad in real time using a local wireless network with built-in parameter reporting, an EFIS MFD, an FMC and Airport. Additional packs consist of songs that have not been featured in Guitar Hero before, and are masters, even though. How to Create an ISO Image File From a DVD, BD, or CD Make an ISO file from any disc in Windows 10, 8, 7, Vista and XP. I use Daemon Tools Lite for this. 5/8/2020; 31 minutes to read +6; In this article. Description: Tekken 3 is a Fighting video game published by Namco released on April 24, 1998 for the Sony PlayStation. When you see a file with. 0 full installer package for Windows. Getting the last-logon-date/time of O365 user is a vital task to track the user's last logon activity, find Inactive users and remove their licenses. iso data file and 'audio binaries' what software should I be using to burn a perfect 1:1 backup from these files?. The reason for this is that it costs a lot of in terms of bandwidth (which costs money. We updated the NDS section today. " in the game's title) and I don't know how to get them to show up as one game when I scan them with Ice. How to play a game with multiple. and September 29, 1995 in Europe. Additionally, you can add text, marker, lyrics, and cue points to the music sheet. Guide isobuster rebuilt bin Multitrack PSX. You identify the location of a track break, write it into a text file and save the file for use in burning CD or splitting the track with an application like CUE Splitter. Horizon Zero Dawn. Again, make sure that "binname" in the. Handy little application that lets you play most, if not all, PSX sounds. Make sure the 'Input' mode is set to 'Standard' (menu at the top) Add the drive letter of your optical drive to the 'Source' box (i. cue of your copy. wav, and so forth. txt fc is an alias for the Format-Custom cmdlet so be sure to enter the command as fc. Learn about CUE/BIN Disk Image File Format; Executable binary files for Unix based operating systems.